Filename C:\Users\Alex\Desktop\Lossless Galaxy ALLexxess\Rush\1980 Permanent Waves (5-Disc Box Set Mercury Records 2020)\CD1\Rush - Permanent Waves CD1. These options are only used when exporting spreads with transparency in artwork. 24/08/2019 BY Free MP3 Site 6 Comments. Lossless FLAC music collection. 1kHz Audio Channels: 2. 0 % Test CRC 42C03631 Copy CRC 42C03631 Copy OK No errors occurred AccurateRip summary. 64, III Allegretto Non Troppo - Allegro Molto Vivace. 100-CD-Box with original recordings. High quality digital remastering, full production limited edition, by Mitsuo Koike who is also the main engineer of YMO and also works on sketch shows etc. 5 X Range quality 100. HTTP download also available at fast speeds. The Beatles - The Lost Album II [14 CD Box Set] (Lossless, 2019) - скачать торрент бесплатно. Hidehiko Matsumoto Quartet – Sleepy (1976) [Japan 2006] SACD ISO + Hi-Res FLAC; Hidefumi Toki Quartet – Toki (1975) [Japan 2006] SACD ISO + Hi-Res FLAC. Filename C:\Users\Alex\Desktop\Lossless Galaxy ALLexxess\Village People\2020 Album Collection 1977-1985 (10CD Box Set Edsel Recors)\1980 Can't Stop The Music OST\Village People - Can't Stop The Music OST. 100 Hits: Fabulous 50s (5CD Box Set) (2014) [FLAC] [ RAR | Music | 1. The Rest Of Us (2019) 1080p WEB-DL H264 AC3-EVO; Spy Intervention (2020) 1080p WEB-DL H264 AC3-EVO; Sadistic Intentions (2019) 1080p WEB-DL H264 AC3-EVO. APE, FLAC, WAV. 31 Gb | Recovery: 3% | Covers: in archive | Release: from Texas Hurricane Boxset by Analogue Productions ‎(CAPB 40036 SA. I restored those entries and have temporarily disabled the delete and edit functions to prevent further damage. First download and install Foobar2000 (link below). 04-26-2020 02:24 AM by Appleyard. The Qobuz hi-res subscription will set you back $24. But first, let me say that this is a fine collection of Beatles material. Дата выхода: 2019. One can find all sorts of categories that music is devised by on Bleep. Toto - All In 1978 - 2018 (Anthology) [2018] [Remastered Box Set] 2019-2-06 | Download more: Genres » Rock, Metal Container : FLAC (tracks) Quality : Hi-Fi, lossless audio Sample Rate : 44. Download the Pink Floyd-Discovery (16CD-14 Albums Box Set EMI Music Japan) 2011 FLAC CUE Lossless Torrent for Free with TorrentFunk. Descarga Gratis para el Art rock, Classic rock, Blues-rock, Avant-garde album o disco The Doors - Perception (Box Set) (2006) comprimido en. cue, log Bitrate: lossless Sample Rate: 16 Bit/44. 1985 - Kitaro - Towards The West (1986, Polydor, 829 006-1, DE, 24-192) » audio music lossless 21 days 1629 MB 1 0 Top 40 van 1974 - 192 TV 24. What A State I'm In 02:22 04. Once a losslessly compressed image is processed by post-processing software, the data is first decompressed, similar to what happens to archived data contained in a ZIP file. Tom Petty And The Heartbreakers – The Complete Studio Albums Volume 1 (1976-1991) (2016) [Remastered, Box Set, Vinyl] Creedence Clearwater Revival – Absolute Originals (2004) [Remastered, Box Set, Vinyl] Cheap Trick – The Classic Albums 1977-1979 (2013) [Remastered, Box Set, Vinyl] View all. AGPTEK Bluetooth MP3 Player sport FM/Voice Recorder 8G HiFi Sound. 4 GB; Uploader eyez; Tags Synth Electronic 2015 Flac Lossless Pop Box Set; Language English; Type Lossless. Lossless Music. [BOX SET] Benjamin Britten - Britten conducts Britten vol. scrappydoo. 0 Total Size: 517. where nnnn is the code point in decimal form, and hhhh is the code point in hexadecimal form. Power dividers (also power splitters and, when used in reverse, power combiners) and directional couplers are passive devices used mostly in the field of radio technology. Saving All My Love For You - Whitney Houston 03. 0 % Extraction speed 6. FLAC, Lossless | 1. wav Peak level 100. Dub Pistols - I'm in love (Feat. Music lossless for lovers of good sound. Darrell Mansfield - Ultimate Series (5 CDs Box Set) - 2012, FLAC (tracks+. 1 Year Of Release: 2020 Genre: Rap/Hip Hop Format: Flac, Tracks Bitrate: lossless Sample Rate: 16bit/44. Lossless FLAC music collection. Category: Lossless. From what I understand, if you pick uncompressed, the Xbox decodes the signal. 0 Total Size. 2020 Lossless; 2019 Lossless; The Revillos - Stratoplay: The Box Set [2020] Iggy Pop - The Bowie Years [2020] View all. Скачать сборник The Tremeloes - Boxed 4CD Box Set в формате FLAC через торрент. Consort of Musicke Anthony Rooley - John Dowland: The Collected Works 12 CD Box Set (1997) (LOSSLESS MP3) Size: 1363 mb Amelia Cuni - Collection 1995-2011, MP3 Amelia Cuni - Collection 1995-2011, MP3 Genre : Classical Music , Discography , World , Ethnic , Ambient. Under audio options, there is an option for either uncompressed or Bitstream. 0 % Test CRC 76731F36 Copy CRC 76731F36 Copy OK No errors occurred AccurateRip summary Track 1 not present in database. Cinderella - The Mercury Years (5 CD Box Set) (Lossless) (2018, Glam Metal) - Download for free via torrent - Metal Tracker. com Torrent description CD1: KILL 'EM ALL (REMASTERED) (00:51:15) 01. cue), lossless Зарубежный Rock (lossless). 0 Sample Rate: 16 Bit/44. Maybellene 02. ZealousidealDish3) submitted 4 minutes ago by ZealousidealDish3 DOWNLOAD LINK: megafile3. Free shipping. 's Delight (Bonus Track Version) Year Of Release: 2017 Genre: Jazz Format: Flac, Tracks Bitrate: lossless Sample Rate: 16bit/44. flac 15 MB. The internet seems to be divided into people that like MQA and those that don’t while probably the silent majority couldn’t care less. Glory Box – 5:06 Personnel: Beth Gibbons (vocals) Adrian Utley (guitar, Theremin) Andy Hague (trumpet) Geoff Barrow (Fender Rhodes piano, drums, programming) Neil Solman (Fender Rhodes piano) Clive Deamer (drums) Richard Newell (programming, drum programming) Download Lossless:. Jethro Tull - Minstrel In The Gallery: 40th Anniversary La Grande Edition (1975) {2015, Box Set, 2CD + 2DVD + Hi-Res} Leon June 4, 2020 2x EAC Rip | FLAC Image + Cue + Log. FFmpeg; Pulse-density modulation (PDM). 05 GB ] Music, like any artistic manifestation, is a cultural product. 9 Studio Albums + Box Set + 2 Compilation Albums [LOSSLESS] Discography. Lossless music download Crosby, Stills, Nash & Young - CSNY 1974 [3CD Box Set] (2014) lossless Rock, Classic Rock, Folk | Author: MusicBox | Yesterday, 16:50. wav Peak level 100. "Complete album in 5. 1-9 (5 CDs, 2012) [Lossless, FLAC] Artist : Erich Leinsdorf / Boston Symphony Orchestra Title : Beethoven: Symphonies Nos. 88 GB FILE FORMAT: FLAC (tracks) QUALITY: Lossless DISC 1 01 Gigi D'agostino - The Riddle 3:19 02 Cygnus X - Superstring 3:07 03 Barthezz - On The Move 3:31. Equipped with built-in equalizer and professional digital noise reduction chip, the MP3 players ensure the high sample rate and restore the original sound quality. Stereo Box Set by The Beatles (2009, CD Flac) - Release Date: 2009 Genre: Rock Audio Codec: Flac Rip Type: tracks +. Download Dio - 5 Classic Albums (5CD Box set) (2017) (Lossless) torrent for free, Downloads via Magnet Link or FREE Movies online to Watch in LimeTorrents. cue), lossless Gregorian - 20/2020 - 2019, FLAC (tracks), lossless. 1 kHz Tracklist: The Beatles - / Box Set, CD Flac, Lossless, KaRaMusic. [BOX SET] Benjamin Britten - Britten conducts Britten vol. cue, log Bitrate: lossless Sample Rate: 16 Bit/44. The Beatles - The Lost Album II [14 CD Box Set] (Lossless, 2019) ARTIST: The BeatlesALBUM / TITLE: The Lost Album IIRELEASE YEAR / DATE: 2019COUNTRY: United KingdomSTYLE: Classic RockDURATION: 18:26:22FILE FORMAT: FLAC (tracks)QUALITY: LosslessSize: 4,42 gb The Lost Album project was born from th. Selected music in lossless quality. Dolly Parton - The Acoustic Collection 1999-2002 3CD Box Set (2006) Lossless 320 MP3 FLAC album. Music / Universal Music / Globe Music Blu-ray / Blu-ray Audio / CD / CD-Text / Remastered Disc 6 has no Mastering SID Code Discs 14, 15 and 16 have no Mould SID Code Catalog Box: GMM9150 Catalog CDs: GMM9150D1~18 Manufactured in USA Dynamic Range: 11 / 9 / 9 / 9 / 7 / 12 / 13 / 11 • 11 / 11 / 10. Lossless music download Crosby, Stills, Nash & Young - CSNY 1974 [3CD Box Set] (2014) lossless Rock, Classic Rock, Folk | Author: MusicBox | Yesterday, 16:50. Highlights include a new '21st Century stereo reimagining' of THRAK (by Jakko Jakszyk and Robert Fripp), ATTAKcATHRAK (a David Singleton edited collection of improvs), and Max VROOOM. Great news. Filename C:\Users\Alex\Desktop\Lossless Galaxy ALLexxess\Rush\1980 Permanent Waves (5-Disc Box Set Mercury Records 2020)\CD1\Rush - Permanent Waves CD1. PCBOX | Genre: Pop Rock This Collector’s Box Set compiles the Deluxe CD versions of ‘Face Value’ and ‘Both Sides’ together with space to complete the collection as the rest of the series is released. Threads Tagged with lossless: Thread / Thread Starter: Last Post: Replies: Views: Forum. cue), lossless The Stranglers - Greatest Hits 1977-1990 - 1990, FLAC (image+. The Beatles - Compact Disc E. 0) | Bitrate: 1 Bit/2. 0 Smart TV BOX Amlogic S905X3 5G Wifi Media Player Set Top Box. cue), lossless. UK box-set includes 11 classics singles, ‘I Can’t Explain’ (1965), ‘My Generation’ (1965), ‘Substitute’ (1966), ‘I’m A Boy’ (1966), ‘Happy Jack’ (1967), ‘Pictures Of Lily’ (1967), ‘I Can See For Miles’ (1967), ‘Pinball Wizard’ (1967), ‘Won’t Get Fooled’ (1971), ‘5. 1-3 (3CD Box Set) (Lossless, Hi Res 2019) бесплатно и без регистрации через торрент. You won't find a more complete collection anywhere. HTTP download also available at fast speeds. 00) Singles Collection - Box Set » audio music lossless 5 months 2479 MB 0 0 Grateful Dead - Formerly The Warlocks 1989 [6CD Box Set] (2010) FLAC Beolab1700 » audio. Disc 1 - Live From The Atlantic Studios 01. Filename C:\Users\Alex\Desktop\Lossless Galaxy ALLexxess\Village People\2020 Album Collection 1977-1985 (10CD Box Set Edsel Recors)\1980 Can't Stop The Music OST\Village People - Can't Stop The Music OST. June 01, 2020. 10CD Box Set » audio music lossless 4 years 2781 MB 2 0 Roxy Music - 10CD Box Set Virgin Records (2012) » audio music lossless 7 years 2760 MB 8 3 (2008. HDtracks albums of all music genres and styles. cue) Quality : Hi-Fi, lossless audio Sample Rate : 44. The album features the international Disco smash hit 'Boogie Oogie Oogie', which is featured here in three different mixes. The first of its kind, this career box set covers the entire Polydor career of Rainbow, featuring rare and unheard tracks as well as fan favourites as well as the band in concert at Monsters of Rock in 1980, compiled by Blackmore expert Andy Francis it presents the story of the band though words, pictures and music. 59 gb Limited Japanese-only 14 CD box set containing paper sleeve reproductions of all of the original singles released by The Doors in Japan, 1967-'72. Tom Petty And The Heartbreakers – The Complete Studio Albums Volume 1 (1976-1991) (2016) [Remastered, Box Set, Vinyl] Creedence Clearwater Revival – Absolute Originals (2004) [Remastered, Box Set, Vinyl] Cheap Trick – The Classic Albums 1977-1979 (2013) [Remastered, Box Set, Vinyl] View all. Title Synth Pop - Electronic 3 CD Box Set 2015 [Flac-Lossless] Uploaded 2 years ago; Last Checked 7 months ago; Size 1. Harry Manfredini - Friday The 13th Parts 1 - 6 Box Set [Limited Edition] (6CD) (2012) Tracks + cue + log | Covers + Booklet | 3% rar recovery. But first, let me say that this is a fine collection of Beatles material. 4: 138: Bootleg Requests : Led Zep - 1977-04-20 - Cincinnati, OH - 3rd Gen. The giants of the Swing Big Band era, when Swing dance was a worldwide craze. cue | Bitrate : lossless | Size: 5. (Nonuple CD - EVSD BOX - Lossless FLAC) Led Zeppelin: Great Chicago Fire. Toto - All In 1978 - 2018 (Anthology) [2018] [Remastered Box Set] 2019-2-06 | Download more: Genres » Rock, Metal Container : FLAC (tracks) Quality : Hi-Fi, lossless audio Sample Rate : 44. Artist: Various Artists Title: Absolute 70’s Year Of Release. 04-26-2020 02:24 AM by Appleyard. 00) Singles Collection - Box Set » audio music lossless 5 months 2479 MB 0 0 Grateful Dead - Formerly The Warlocks 1989 [6CD Box Set] (2010) FLAC Beolab1700 » audio. Sunshine Of. Either Apple could start selling Lossless, or they could be using these files as the basis for an allofmp3-style system, whereby you set in iTunes prefs what bitrate. Blessed 03:01 02. Mastered from tapes in the collection of the estate of founder member and guitarist Mark Reale, The Official Bootleg Box Set Volume 1 captures the band at their formative, early club stages in 1976, where much of their repertoire included songs by the bands that had influenced them, such as their covers on Montrose's 'I Got the Fire', 'Good. 36pcs Car Automotive Mini Blade Fuses Kit Tool Set 7. Free lossless music downloads. AC/DC - Backtracks (Box Set) (2009) [LOSSLESS FLAC] On Feb 5, 2020 83. Money (That's What I Want) 12. One is a forty-seven disc box set released on November 4, 2013 by Bob Dylan. 9 % Test CRC D18448B1 Copy CRC D18448B1 Copy OK No errors. Noisettes - Never forget you 04. AGPTEK Bluetooth MP3 Player sport FM/Voice Recorder 8G HiFi Sound. Buy on Amazon. Portable LCD MP3 MP4 Lossless Sound Music Player FM Radio Support 32GB TF Card. cue, log Bitrate: lossless Sample Rate: 16 Bit/44. 1 kHz Tracklist: The Beatles - / Box Set, CD Flac, Lossless, KaRaMusic. Filename C:\Users\Alex\Desktop\Lossless Galaxy ALLexxess\King Crimson\2017 Sailors' Tales (27-Disc Box Set Panegyric Records)\Disc 10 1972 Live In Wilmington, DE\King Crimson - Sailors' Tales 10 Live In Wilmington, DE. Björk - 9 Studio Albums + Greatest Hits [LOSSLESS] Discography Download Individually 1993 - Debut : Released : 5 July 1993 Quality : iTunes Plus AAC M4A Tracklist: 1. The Stranglers - Giants And Gems: An Album Collection-40th Anniversary (11 CD Box Set) - 2014 (Parlophone Records EU), FLAC (image+. Все Тут Online > CD (Компакт диски) Lossless - МУЗЫКА БЕЗ ПОТЕРИ КАЧЕСТВА > РОК МУЗЫКА (Lossless) > Зарубежный Rock (lossless) Jack Bruce ‎– Can You Follow (6CD Box Set) - 2008 [lossless]. The Cranberries – 8 Studio Albums + Greatest Hits [LOSSLESS] Discography Maret 01, 2018 Album , Discography , iTunes Music , iTunes Plus AAC M4A , The Cranberries Download Individually 20th Century Masters - The Millennium Collection: The Best of the Cranberries : Released: Jan 1, 200. Consultez des crédits, des avis, des pistes et achetez la référence 2009 Paper Sleeves Box Set de In The Court Of The Crimson King - An Observation By King Crimson sur Discogs. La Musique de L`Amour (2010) lossle Звуки живой природы - Коллекция (2005) lossless; Romantic Collection - Tet-a-Tet (1995) lossless; Прикоснись к природе. Artist: Celibidache Title Of Album: Sacred Music & Opera (11 CD Box Set) Year Of Release: 2011. cue), lossless Зарубежный Rock (lossless). cue) Bitrate: Hi-Fi, lossless audio Performer: Jethro Tull Album: Original Album Series Label: Chrysalis Records / Rhino Entertainment / Warner Music Group Made in: EU Catalog: 2564628533 Style: Progressive Rock. 05-24-2020 03:20 PM by scrappydoo. Lossless Albums » FLAC 16 bit » Pink Floyd - Discovery (16CD Box Set) (2011) FLAC Genres: FLAC 16 bit / Rock / Discography 14-04-2019, 20:08 1 431 aleXs All music Pink Floyd. If Compatibility (in the General area of the dialog box) is set to Acrobat 4 (PDF 1. Rainbow - Deutschland Tournee 1976 [Japanese Edition, 6 CD Box Set] (2006) Ritchie Blackmore - Ritchie Blackmore Anthology Vol. Electronic music - New Age, Ambient, Quality lossless. Under audio options, there is an option for either uncompressed or Bitstream. 1 x USB bluetooth Lossless Audio Decoder Board. thataboy Said:. Natalie Cole - Original Album Series (5CD Box Set) 2009 MP3 320kbps CBR and FLAC Lossless. David Bowie - Conversation Piece (Box Set, 5CD) (lossless, 2019) Descarga este album en MP3 por torrent, totalmente gratis y a Toda velocidad - Infomaniakos. Sunshine Of. The Qobuz hi-res subscription will set you back $24. A box set of 8 CDs with live files from DJ COPY and the album, with a focus on the live sound from the world tour of YMO1978-1980. Simple Minds - Themes [25 CD-Singles Box Set] (2008), FLAC, Lossless (self. Portable LCD MP3 MP4 Lossless Sound Music Player FM Radio Support 32GB TF Card. Baron and Goodwin play heavily with Teiji Ito’s 1959 soundtrack, making the film’s lyrical ambience feel more astonishing than ever before. Watch Bob Marley & The Wailers - 5 Classic Albums (5CD Box Set) - 2013 (Universal Music B0019494-02 USA), FLAC (image cue), lossless Free Full Movies Online, Like 123Movies, Fmovies, Putlocker, Netflix or Direct Download Torrent Bob Marley & The Wailers - 5 Classic Albums (5CD Box Set) - 2013 (Universal Music B0019494-02 USA), FLAC (image cue. Music lossless for lovers of good sound. There's also a deluxe 48-page book that features numerous rare photos by renowned photographer Terry O'Neill and a new 5,000-word essay by Rolling Stone senior editor David Fricke. Savage – SavageLife, Vol. The Dark Side of the Moon [Immersion Box Set - CD 6] 2011: 10: 07: 12: lossless: CD: Pink Floyd: The Dark Side Of The Moon: 2011: 10: 08: 11: lossless: CD: Pink Floyd: The Dark Side Of The Moon (40th Anniversary Vinyl Edition) 2011: 11: 10: 12: lossless: Vinyl: Pink Floyd: The Dark Side Of The Moon [SACD, 2. Remaster Pop Rock Classic Rock Label: SPV Acoustic 3-05-2020, 08:21 Rainbow - The Singles Box Set 1975-1986 (2013) [FLAC (tracks)]. There's also a deluxe 48-page book that features numerous rare photos by renowned photographer Terry O'Neill and a new 5,000-word essay by Rolling Stone senior editor David Fricke. Box box set! Recorded live at the Underworld in Camden, this Exhilaration II - Crepusculo - Exhilaration finds the band performing Hawkwind's classic behemoth Hall Of The Mountain Grill in its entirety plus additional fan favorites! Follow Armande as she flees her unhinged family, only to be caught up in the chaos of The Hundred Years War. cue) Quality: Hi-Fi, lossless audio Sample Rate: 44. Image compression is one of easiest optimizations you can implement. I restored those entries and have temporarily disabled the delete and edit functions to prevent further damage. wav Pre-gap length 0:00:00. Tracklist CD 2 - EA Dramatic Mix. The Corrs Original Album Series 5cd Box Set 2011 Lossless Author: bianvama. 9 % Test CRC B9FB0E86 Copy CRC B9FB0E86 Copy OK No errors occurred AccurateRip. nz 03 September 2016. cue), lossless. Lossless is available in FLAC and ALAC For Mac. The player itself has no internal memory but will have the firmware set up to work with a prepared memory card containing Rockbox which is what you're choosing. FFmpeg and its photosensitivity filter are not making any medical claims. Talking Benji T-6 Lossless Hi Fi Media Player 64GB with Rockbox plus free wall charger & free stick-on Clip-Introducing the latest fully blind and vis. Remaster Pop Rock Classic Rock Label: SPV Acoustic 3-05-2020, 08:21 Rainbow - The Singles Box Set 1975-1986 (2013) [FLAC (tracks)]. Download music lossless FLAC. What A State I'm In 02:22 04. Artist: Kraftwerk Album: 3-D: Catalogue (8 CD Box Set) Year: 2017 Genre: Synthpop, electronic Quality: FLAC (tracks), 24 bit, 44. 100 Hits American Anthems - Box Set 2019 [Flac-Lossless] 100 Hits American Anthems 5 Disc Set 100 Hits American Anthems [CD 1] 20 James Brown - Living In America. flac 18 MB Just Acoustic 4 Disc Box Set/Just Acoustic [CD 4]/16 Little Feat - Willing. 8 MB) Just_Acoustic_CD3. First download and install Foobar2000 (link below). Filename C:\Users\Alex\Desktop\Lossless Galaxy ALLexxess\King Crimson\2017 Sailors' Tales (27-Disc Box Set Panegyric Records)\Disc 10 1972 Live In Wilmington, DE\King Crimson - Sailors' Tales 10 Live In Wilmington, DE. Вы можете воспользоваться поиском торрент файлов, что бы скачать музыку Pink Floyd - Discovery (16CD Box Set Remastered) Japan (2011) в формате Flac, Ape, Wavpack, WMA Lossless. wav Pre-gap length 0:00:00. I restored those entries and have temporarily disabled the delete and edit functions to prevent further damage. About Lossless Việt Nam. Dream Theater - Distance Over Time (2019) [24. 5 Encapsulation of JPEG-2000 and JPEG-XR have been specified for JPX container. Disc 1 - Studio Rarities 01. Cream - Cream USA 7 CD Box Set 1967-68 Tarantura Artwork included Cream Your Jeans Brandeis University Waltham, MA September 9, 1967 Tarantura TCD Cream-1-1,2 Disc 1: 101. Cock In My Pocket 4. 89 GB Recovery: +3% Scan: yes. An institution north of the Canadian border, Gordon Lightfoot is practically the living embodiment of what many think of as the national character. Stereo Box Set by The Beatles (2009, CD Flac) - Release Date: 2009 Genre: Rock Audio Codec: Flac Rip Type: tracks +. Формат: FLAC, (tracks) 24 bits, 44,1 KHz, Lossless. With lossless compression, every single bit of data that was originally in the file remains after the file is uncompressed. The x must be lowercase in XML documents. cue), lossless Gregorian - 20/2020 - 2019, FLAC (tracks), lossless. The giants of the Swing Big Band era, when Swing dance was a worldwide craze. Mastered from tapes in the collection of the estate of founder member and guitarist Mark Reale, The Official Bootleg Box Set Volume 1 captures the band at their formative, early club stages in 1976, where much of their repertoire included songs by the bands that had influenced them, such as their covers on Montrose's 'I Got the Fire', 'Good. 100 Hits American Anthems - Box Set 2019 (Flac-Lossless)100 Hits American Anthems 5 Disc Set100 Hits American Anthems (CD 1) 20 James Brown - Living In America. Notes: Judas Priest - "Full Metal Box" Limited Box Set (6Cd) 2008 W0rld T0ur Yokohama & Tokyo 2Days :: Cd1+Cd2 From Pacifico Yokohama, Kanagawa, Japan ~ 28Th September 2008 :: Cd3+Cd4 From Nippon Budokan, Tokyo, Japan ~ 29Th September 2008 :: Cd5 & Cd6 from International Forum A, Tokyo, Japan, 1st October 2008. APE, FLAC, WAV. It's the first such application that I've used. I haven't yet started ripping any CDs but I did open the app for a quick look at it. Mono Box Set by The Beatles (2009, CD Flac) - Release Date: 2009 Genre: Rock Audio Codec: Flac Rip Type: tracks +. Humble Pie's Up Our Sleeve: Official Bootleg Box Set Vol 3 is the latest recorded testament to what this band did best; playing bluesy, gutsy, soulful hard rock, live on stage. The Purcell Quartet: J. AGPTEK Bluetooth MP3 Player sport FM/Voice Recorder 8G HiFi Sound. flac34 MB09 Bruce Hornsby And The Range - The Way It Is. Image compression is one of easiest optimizations you can implement. Artist: Various Artists. Toto - All In 1978 - 2018 (Anthology) [2018] [Remastered Box Set] 2019-2-06 | Download more: Genres » Rock, Metal Container : FLAC (tracks) Quality : Hi-Fi, lossless audio Sample Rate : 44. 2018 ruskaval Grateful Dead 5 Show, 12CD Limited Edition/1000 only. 5A 10A 15A 20A 25A 30A. Het was het eerste wekelijkse popprogramma op de Nederlandse televisie, bedacht door Rien van Wijk. The Jimi Hendrix Experience - The Jimi Hendrix Experience [Vinyl Box Set] (2017) [24bit-192kHz] Today, 19:21 | Download more: Category » Hi-Res, DSD, Vinyl Container: flac (tracks) Quality: Hi-Fi, lossless audio Sample Rate: 192000 kHz / 24 bit, Stereo Source: 8 x LP Album Artist/Name: / The Jimi Hendrix Experience Genre: Rock Release Date. Gimme Some Skin 3. 8 X Range quality 99. cue), lossless. top/file/Pink Floyd - The Discovery Studio Album Box Set (16CD) - 2011, ALAC, Lossless. Electronic music - New Age, Ambient, Quality lossless. 15’ (1973), & ‘Who Are You’ (1978), with their original B-sides, & one new single ‘Real Good Looking Boy’ (b/w ‘Old Red Wine). Lossless | FLAC | MEGA. Lossless is available in FLAC and ALAC For Mac. Bach – Early Cantatas vol. Pink Floyd Discovery Box. DTS Trailers presented in Lossless DTS:X, DTS HD Master Audio (or High Resolution), and traditional DTS lossy 1,536 Kbps. Limited 18 disc (14 CDs + 4 Blu-ray audio). 1 (6CD Box Set) (2010) FLAC Genres: FLAC 16 bit / Rock / Downtempo / Ambient/ New Age / Instrumental 14-02-2019, 11:25 683 aleXs. Compositor : Deutsche Grammophon Collection 101 CD box set FLAC Period : (varios) Nationality : varios Era or style music: Baroque, Renaissance, Classical, Romantic, Twentieth Century Audio format : FLAC Lossless Size : 25. Highlights include a new '21st Century stereo reimagining' of THRAK (by Jakko Jakszyk and Robert Fripp), ATTAKcATHRAK (a David Singleton edited collection of improvs), and Max VROOOM. cue) QUALIDADE: Lossless SÍTIO: chuckberry. Lossless Music. Saving All My Love For You - Whitney Houston 03. Power dividers (also power splitters and, when used in reverse, power combiners) and directional couplers are passive devices used mostly in the field of radio technology. 64, III Allegretto Non Troppo - Allegro Molto Vivace. CD Rip Flac & Ape MP3 Music Music Pop Rock. (Nonuple CD - EVSD BOX - Lossless FLAC) Led Zeppelin: Great Chicago Fire. De/Vision - Popgefahr - The Collection (Box Set, Limited Edition) (Lossless, 2013) - скачать торрент бесплатно. 0 Total Size: 240. Richard Strauss - Symphonic Poems by Karajan. Tom Petty And The Heartbreakers – The Complete Studio Albums Volume 1 (1976-1991) (2016) [Remastered, Box Set, Vinyl] Creedence Clearwater Revival – Absolute Originals (2004) [Remastered, Box Set, Vinyl] Cheap Trick – The Classic Albums 1977-1979 (2013) [Remastered, Box Set, Vinyl] View all. David Bowie - Conversation Piece (Box Set, 5CD) (lossless, 2019) Descarga este album en MP3 por torrent, totalmente gratis y a Toda velocidad - Infomaniakos. Category: Lossless. Скачать через торрент (Progressive Hard Rock Fusion) [CD] Queen – The Discography / Дискография (16 Studio, 11 Live, 13 Compilation, 63 Singles, 2 Collaboration, 7 Box Set, 243 issues, 336 CD) - 1973-2015, FLAC (image+. Лучшая и редкая музыка » Дискографии » Rod Stewart - The Studio Albums 1975-2001 (14CD Box Set) (2013) Lossless Дискографии Вчера, 22:19 vinni2012 333 0. Box Set 2004) Lossless My blog. The x must be lowercase in XML documents. Все Тут Online > CD (Компакт диски) Lossless - МУЗЫКА БЕЗ ПОТЕРИ КАЧЕСТВА > РОК МУЗЫКА (Lossless) > Зарубежный Rock (lossless) Jack Bruce ‎– Can You Follow (6CD Box Set) - 2008 [lossless]. Lossless Cut is a free portable cross-platform program that enables you to cut videos in an easy to use interface without quality reductions. demerval 31 March 2020 17:59. Title: Absolute 70's. cue) Bitrate: Hi-Fi, lossless audio Performer: Jethro Tull Album: Original Album Series Label: Chrysalis Records / Rhino Entertainment / Warner Music Group Made in: EU Catalog: 2564628533 Style: Progressive Rock. Artist: Kraftwerk Album: 3-D: Catalogue (8 CD Box Set) Year: 2017 Genre: Synthpop, electronic Quality: FLAC (tracks), 24 bit, 44. 0 Surround - For PC and PlayStation 4 - Black HyperX Cloud Alpha S - PC Gaming Headset, 7. The first of its kind, this career box set covers the entire Polydor career of Rainbow, featuring rare and unheard tracks as well as fan favourites as well as the band in concert at Monsters of Rock in 1980, compiled by Blackmore expert Andy Francis it presents the story of the band though words, pictures and music. Download VA - The Romantic Collection [5CD Box Set] (Lossless, 2004) - free music torrent. Def Leppard - London to Vegas (Live)(2CD) 34 0 639. Hidehiko Matsumoto Quartet – Sleepy (1976) [Japan 2006] SACD ISO + Hi-Res FLAC; Hidefumi Toki Quartet – Toki (1975) [Japan 2006] SACD ISO + Hi-Res FLAC. 0 MB) 06 Boy Meets Girl - Waiting For A Star To Fall. Albums/2006 - Hosannas From The Basements Of Hell/Killing Joke - Hosannas From the Basements of HELL. According to Al Wegener, like other commercial lossless audio compression algorithms, MUSICompress uses a predictor to approximate the audio signal - encoding the prediction data in the output stream - and then computes a set of difference values between the prediction and the actual signal. wav Peak level 99. sy yg beli jazz collection box set. The Squeezebox does come with PC software that can transcode WMA Lossless files on the fly, but that requires storing your WMA Lossless files on a PC as opposed to a NAS box (since that kind of. 5 MB) 09 Bruce Hornsby And The Range - The Way It Is. Music / Universal Music / Globe Music Blu-ray / Blu-ray Audio / CD / CD-Text / Remastered Disc 6 has no Mastering SID Code Discs 14, 15 and 16 have no Mould SID Code Catalog Box: GMM9150 Catalog CDs: GMM9150D1~18 Manufactured in USA Dynamic Range: 11 / 9 / 9 / 9 / 7 / 12 / 13 / 11 • 11 / 11 / 10. a tree full of secrets (box set) by pink floyd | alben | 22. ape Extracted successfully Conclusion: this track is CDDA with probability 54% Tempfile successfully deleted. - The RCA Era (Vinil, 7CD Box Set) (Lossless, Hi Res 2017) бесплатно и без регистрации через торрент. 5 X Range quality 100. A Nightmare On Elm Street - 8 CD Box Set (Original Motion Picture Soundtracks) (2015). flac 18 MB Just Acoustic 4 Disc Box Set/Just Acoustic [CD 4]/16 Little Feat - Willing. cue, log Bitrate: lossless Sample Rate: 16 Bit/44. Mark Hollis - Mark Hollis Year Of Release: 1998 Genre: Pop Format: Flac, Tracks Bitrate: lossless Sample Rate: 16bit/44. My Heart Will Go On - Celine Dion 02. Glory Box - 5:06 Personnel: Beth Gibbons (vocals) Adrian Utley (guitar, Theremin) Andy Hague (trumpet) Geoff Barrow (Fender Rhodes piano, drums, programming) Neil Solman (Fender Rhodes piano) Clive Deamer (drums) Richard Newell (programming, drum programming) Download Lossless:. 1-10 15 CD Box Set (2011) David Zinman Zurich Tonhalle Orchestra - Mahler: Symphonies Nos. Amy Winehouse - You know I'm no good 02. The singles span the band's entire original career including singles recorded and released after Jim Morrison's death. Power dividers (also power splitters and, when used in reverse, power combiners) and directional couplers are passive devices used mostly in the field of radio technology. Toto - All In 1978 - 2018 (Anthology) [2018] [Remastered Box Set] 2019-2-06 | Download more: Genres » Rock, Metal Container : FLAC (tracks) Quality : Hi-Fi, lossless audio Sample Rate : 44. Glenn Hughes – The Official Bootleg Box Set Volume Two 1993-2013 (2019) [FLAC] July 5, 2019 admin Lossless. Lossless Albums » FLAC 16 bit » Pink Floyd - Discovery (16CD Box Set) (2011) FLAC Genres: FLAC 16 bit / Rock / Discography 14-04-2019, 20:08 1 431 aleXs All music Pink Floyd. 100 Hits American Anthems - Box Set 2019 (Flac-Lossless)100 Hits American Anthems 5 Disc Set100 Hits American Anthems (CD 1) 20 James Brown - Living In America. Pink Floyd Discovery Box. FLAC-SARTRE » adult 2 years 5171 MB 15 7 Kraftwerk - 3-D Der Katalog (8 CD Box Set) [2017] flac » audio music lossless 3 years 1508 MB 21 1 The Brothers 2020-03-10 FLAC » audio music lossless. cue] Идеальный рип + Собственный рип: 9 | 0. The Corrs Original Album Series 5cd Box Set 2011 Lossless Author: bianvama Keywords: bianvama Created Date: 2/7/2018 11:03:00 PM. 190, 191, 192, 193. Compilation. Title: Absolute 70's. Tom Petty And The Heartbreakers - The Complete Studio Albums Volume 1 (1976-1991) (2016) [Remastered, Box Set, Vinyl] Creedence Clearwater Revival - Absolute Originals (2004) [Remastered, Box Set, Vinyl] Cheap Trick - The Classic Albums 1977-1979 (2013) [Remastered, Box Set, Vinyl] View all. Quality : Lossless Flac Scans : full booklet. Stevie Ray Vaughan And Double Trouble - Soul To Soul (Texas Hurricane Box Set) Artist: Stevie Ray Vaughan And Double Trouble | Album: Soul To Soul | Style: Texas Blues | Year: 2014 [1985 original] | Quality: SACD (DSD64 2. Lossless music quality - Albums and collections - a large collection of the best musical works of different genres and directions in flac format стр. b/musicbox. Tight Pants 2. thataboy Said:. (Soul/Funk/D isco) VA - The Tabu Records Box Set (2014), FLAC (tracks+. WRZmusic; Reupload; Request - Ask and you shall receive ! See Latest Requests. 1 (Lebhaft), for piano in G major, Op. 5 Gb Album information I like. VA - I LOVE THE 00S [4CD BOX SET] (LOSSLESS 2019) GROO ARTIST: VA ALBUM / TITLE: I Love The 00s [4CD Box Set] RELEASE YEAR / DATE: 2019 STYLE: Pop, Dance, Electronic DURATION: 04:44:09 / 1. 3 % Extraction speed 2. 0 Smart TV BOX Amlogic S905X3 5G Wifi Media Player Set Top Box. Synth Pop - Electronic 3 CD Box Set 2015 [Flac-Lossless] ETTV torrent download - Free Download of Synth Pop - Electronic 3 CD Box Set 2015 [Flac-Lossless] only on ettvdl. High Quality Music. 15’ (1973), & ‘Who Are You’ (1978), with their original B-sides, & one new single ‘Real Good Looking Boy’ (b/w ‘Old Red Wine). HDtracks albums of all music genres and styles. cue) lossless. Lossless Music. flac34 MB09 Bruce Hornsby And The Range - The Way It Is. Quality: FLAC 16 bit / 44. 1kHz Audio Channels: 2. / Natalie Cole - Original Album Series (5CD Box Set) 2009 MP3 320kbps CBR and FLAC Lossless. 1 (Lebhaft), for piano in G major, Op. Скачать Champion Jack Dupree - Blues Pianist Of New Orleans, Vol. 24/08/2019 BY Free MP3 Site 6 Comments. Either Apple could start selling Lossless, or they could be using these files as the basis for an allofmp3-style system, whereby you set in iTunes prefs what bitrate. Filename C:\Users\Alex\Desktop\Lossless Galaxy ALLexxess\Rush\1980 Permanent Waves (5-Disc Box Set Mercury Records 2020)\CD1\Rush - Permanent Waves CD1. Container: flac (tracks) Quality: Hi-Fi, lossless audio Sample Rate: 96000 kHz / 24 bit, Stereo Source: 7 x LP Album Artist: Bright Eyes Album Name: A Collection Of Songs Written And Recorded 1995-1997 (2003 Box Set Remaster Vinyl) Genre: Alternative Release Date: 1998 Duration: 03:40:55 ArtWork: not included Size. 00) Singles Collection - Box Set » audio music lossless 5 months 2479 MB 0 0 Grateful Dead - Formerly The Warlocks 1989 [6CD Box Set] (2010) FLAC Beolab1700 » audio. On our site you can download lossless music, favorite artists in flac format for free and without registration, as well as for vinyl lovers, we have digitization from vinyl records (Vinyl rip). Portable LCD MP3 MP4 Lossless Sound Music Player FM Radio Support 32GB TF Card. 0: Lossless Audio Bootlegs: 1: 06-20-2010 12:36 PM: Pink Floyd - 1989 Live in Venice (Italy) EDGE: Lossy Audio Bootlegs. The Purcell Quartet: J. 1 kHz Total Size: 2. VA - The Greatest Ever! Love Songs (2014) FLAC, Lossless; 24/06/2020 Spy Intervention 2020 1080p WEBRip x265-RARBG; 24/06/2020 Spirits In The Dark 2020 1080p AMZN WEB-DL DDP2 0 H 264-CMRG; 19/06/2020 VA - Blue Note: Music for Lovers - Complete Series (2006) FLAC, Lossless; 21/06/2020 Pink Floyd - A Tree Full Of Secrets (1999) (18CD Box Set. Albums/2006 - Hosannas From The Basements Of Hell/Killing Joke - Hosannas From the Basements of HELL. Under audio options, there is an option for either uncompressed or Bitstream. This seven-CD box set lives up to its title, reissuing in chronological order all of tenor saxophonist Sonny Rollins' recordings for Prestige. Various Artists- Best Audiophile Voices (4CD Box Set - lossless). Herbert von Karajan - Symphony Edition (38 CDs Box Set) (2008) lossless Classic, Discographies | Author: valechek | 17-05-2020, 14:35 Artist : Herbert von Karajan. 88 GB FILE FORMAT: FLAC (tracks) QUALITY: Lossless DISC 1 01 Gigi D'agostino - The Riddle 3:19 02 Cygnus X - Superstring 3:07 03 Barthezz - On The Move 3:31. Все Тут Online > CD (Компакт диски) Lossless - МУЗЫКА БЕЗ ПОТЕРИ КАЧЕСТВА > РОК МУЗЫКА (Lossless) > Зарубежный Rock (lossless) Jack Bruce ‎– Can You Follow (6CD Box Set) - 2008 [lossless]. Artist: The Fall Title Of Album: The Fall Box Set 1976-2007 Year Of Release: 2007 Label (Catalog#): Castle Music [CMXBX1558] Country: UK Genre: Alternative Rock, New Wave, Indie Rock Quality: FLAC (*tracks,cue,log) Bitrate: Lossless Time: 6:12:40 Full Size: 2. The Singles Box Set 1975-1986 (2013) [FLAC (tracks)]. Aerosmith, Bon Jovi, Guns N' Roses, Green Day, Sex Pistols - Bands Unlimited Collection (2011) Box Set, 5CD [FLAC|Lossless|tracks +. 4 -===- D:\музыка\Lossless\Forever Classics\Forever Classics - CD 05 - Mendelssohn\04 - Violin Concerto in E Minor, Op. Lossless and lossy compression are terms that describe whether or not, in the compression of a file, all original data can be recovered when the file is uncompressed. Tom Petty And The Heartbreakers – The Complete Studio Albums Volume 1 (1976-1991) (2016) [Remastered, Box Set, Vinyl] Creedence Clearwater Revival – Absolute Originals (2004) [Remastered, Box Set, Vinyl] Cheap Trick – The Classic Albums 1977-1979 (2013) [Remastered, Box Set, Vinyl] View all. Remaster Pop Rock Classic Rock Label: SPV Acoustic 3-05-2020, 08:21 Rainbow - The Singles Box Set 1975-1986 (2013) [FLAC (tracks)]. Dolly Parton - The Acoustic Collection 1999-2002 3CD Box Set (2006) Lossless 320 MP3 FLAC album. Consort of Musicke Anthony Rooley - John Dowland: The Collected Works 12 CD Box Set (1997) (LOSSLESS MP3) Size: 1363 mb Amelia Cuni - Collection 1995-2011, MP3 Amelia Cuni - Collection 1995-2011, MP3 Genre : Classical Music , Discography , World , Ethnic , Ambient. Compositor : Deutsche Grammophon Collection 101 CD box set FLAC Period : (varios) Nationality : varios Era or style music: Baroque, Renaissance, Classical, Romantic, Twentieth Century Audio format : FLAC Lossless Size : 25. Jethro Tull - Minstrel In The Gallery: 40th Anniversary La Grande Edition (1975) {2015, Box Set, 2CD + 2DVD + Hi-Res} Leon June 4, 2020 2x EAC Rip | FLAC Image + Cue + Log. 2 X Track quality 100. I restored those entries and have temporarily disabled the delete and edit functions to prevent further damage. Box#: 081227953911. Lossless FLAC music collection. A Nightmare On Elm Street - 8 CD Box Set (Original Motion Picture Soundtracks) (2015). With a lossless audio file or even a good quality mp3, the sound quality is so good that it will satisfy even the most discerning audiophile. Box Set 2004) Lossless My blog. Artist: The Fall Title Of Album: The Fall Box Set 1976-2007 Year Of Release: 2007 Label (Catalog#): Castle Music [CMXBX1558] Country: UK Genre: Alternative Rock, New Wave, Indie Rock Quality: FLAC (*tracks,cue,log) Bitrate: Lossless Time: 6:12:40 Full Size: 2. 1 and above, you can play the music through Bluetooth speaker or Bluetooth headset. Download the 101 Electronic 80s - Electronic And Synth 5 CD Box Set 2017 [Flac-Lossless] Torrent for Free with TorrentFunk. Add tag=VLAN to your ovs-vsctl add-port command. 0 Smart TV BOX Amlogic S905X3 5G Wifi Media Player Set Top Box. Richard Strauss - Symphonic Poems by Karajan. 3), you can specify a preset (or set of options) for flattening transparency. Category: Lossless. Since FLAC is meant to be lossless, I'm not sure why there are degrees of "lossless" in this case. Детали релиза Various Artists - This Is Smooth Jazz - The Box Set (2001) [FLAC (tracks +. HK1 X3 Android 10. Download the Def Leppard - 2018 - The CD Box-Volume One [7CD Box Set Remastered] FLAC Torrent for Free with TorrentFunk. 4 -===- D:\музыка\Lossless\Forever Classics\Forever Classics - CD 05 - Mendelssohn\04 - Violin Concerto in E Minor, Op. Sony The Classical Collection [30 CD Box Set] (2008) FLAC Genres: Piano / Violin / Organ / Cello 9-04-2018, 14:00 2 691 soundmaster Vivaldi Bach Handel Haydn Mozart Beethoven Schubert Mendelssohn Schumann Chopin Brahms Strauss Mussorgsky Tchaikovsky Mahler Debussy Ravel Gershwin. Дата выхода: 2019. 0 Smart TV BOX Amlogic S905X3 5G Wifi Media Player Set Top Box. cue),lossle ss Страницы: 1 Джазовая и Блюзовая музыка » Зарубежный джаз » Funk, Soul, R&B (lossless). сборник включает в себя следующие треки: Disc One 01. Genre: Classical Quality: FLAC (Tracks,cue)/MP3 Bitrate: Lossless/320 kbps. Highlights include a new ’21st Century stereo reimagining’ of THRAK (by Jakko Jakszyk and Robert Fripp), ATTAKcATHRAK (a David Singleton edited collection of improvs), and Max VROOOM, which sees a release for the long out of print mini-album VROOOM. 1 (6CD Box Set) (2010) FLAC Graham Parker - The Official Bootleg Box Vol. Björk – 9 Studio Albums + Greatest Hits [LOSSLESS] Discography Download Individually 1993 - Debut : Released : 5 July 1993 Quality : iTunes Plus AAC M4A Tracklist: 1. My Heart Will Go On - Celine Dion 02. Скачать через торрент (Progressive Hard Rock Fusion) [CD] Queen – The Discography / Дискография (16 Studio, 11 Live, 13 Compilation, 63 Singles, 2 Collaboration, 7 Box Set, 243 issues, 336 CD) - 1973-2015, FLAC (image+. Toto - All In 1978 - 2018 (Anthology) [2018] [Remastered Box Set] 2019-2-06 | Download more: Genres » Rock, Metal Container : FLAC (tracks) Quality : Hi-Fi, lossless audio Sample Rate : 44. Starless and Bible Black is the sixth studio album by English progressive rock band King Crimson, released in March 1974 by Island Records in the United Kingdom and by Atlantic Records in the United States. 0: Lossless Audio Bootlegs: 7: 05-30-2015 12:20 AM: Pink Floyd: The Wall Live at Earl's Court Aug. Led Zeppelin - Houses Of The Holy (1973) (The Definitive Box Set 2008). The singles span the band's entire original career including singles recorded and released after Jim Morrison's death. Вы можете воспользоваться поиском торрент файлов, что бы скачать музыку Pink Floyd - Discovery (16CD Box Set Remastered) Japan (2011) в формате Flac, Ape, Wavpack, WMA Lossless. There is no sampling or use of statistics. You viviana sofronitsky mozart complete fortepiano concertos 11 cd box set 2008 lossless rar can indeed find thrills elsewhere, but Viviana Sofronitsky delivers on almost every level, with only a suggestion that a little more intensity and drama might have been thrown into the mix at times. Starless and Bible Black is the sixth studio album by English progressive rock band King Crimson, released in March 1974 by Island Records in the United Kingdom and by Atlantic Records in the United States. 4 JPX is a box-structured format compatible with ISOBMFF. cue, log Bitrate: lossless Sample Rate: 16 Bit/44. the accountant. It is not, in general, very well-supported; for lossless image storage you are typically better off with something like PNG. 1 Year Of Release: 2020 Genre: Rap/Hip Hop Format: Flac, Tracks Bitrate: lossless Sample Rate: 16bit/44. High Voltage (Original Australian Release). The price for a FLAC track can go up to $1. wav Peak level 100. HK1 X3 Android 10. 4 X Range quality 99. Artist: Kraftwerk Album: 3-D: Catalogue (8 CD Box Set) Year: 2017 Genre: Synthpop, electronic Quality: FLAC (tracks), 24 bit, 44. (5-CD LP-sized box set with 84-page hardcover book) Box set containing Buck's complete recordings 1953-64 including demos, singles, LPs, unreleased songs and more. 5 X Range quality 100. Have I Told You Lately - Rod Stewart 05. Dieter Meier - Tango For Fame (2017) 16-05-2020, 16:57 moote 904 0. 1-5 is so visually lossless that flaws aren't apparent even after strong sharpening. Mono Box Set by The Beatles (2009, CD Flac) - Release Date: 2009 Genre: Rock Audio Codec: Flac Rip Type: tracks +. "Human Behaviou. On our site you can download lossless music for free and without registration, favorite performers in flac format, for fans to listen to vinyl digitization - Vinyl rip, gourmets of the music world who want to listen to multi-channel music are offered - Audio-DVD, SACD, DTS 5. 17 Peak level 100. VA - Rock Legends The Ultimate Collection [5CD Box Set] (2018) FLAC. a tree full of secrets (box set) by pink floyd | alben | 22. Quality : Lossless Flac Scans : full booklet. Sir Georg Solti, Chicago Symphony Orchestra - Bruckner. Blue Öyster Cult (Blue Oyster Cult): The Complete Columbia Albums Collection: 16CD, DVD Box Set Sony Music 2012 EU (Remaster) MP3 320kbps CBR and FLAC Lossless. 1 kHz / 16 Bit Source : 13 x CD Album Artist : Toto Album Name : All In 1978 - 2018 (Anthology) Genre : Rock Release Date : 2018 ArtWork : included. Lossless and lossy compression are terms that describe whether or not, in the compression of a file, all original data can be recovered when the file is uncompressed. Аngrа - Sесrеt Gаrdеn (2СD) [Jараnеsе Еditiоn] (2014) Неlеnо Vаlе's SоulSреll Меtаl Ореrа - Disсоgrарhу (2008-2012. 8MHz | Tracks: 13 | Size: ~2. Money (That's What I Want) 12. 96 FLAC] » audio music lossless 1 year 1387 MB 21 1 Kiss. Download the Pink Floyd-Discovery (16CD-14 Albums Box Set EMI Music Japan) 2011 FLAC CUE Lossless Torrent for Free with TorrentFunk. 4 X Range quality 99. There is no sampling or use of statistics. 1 Surround Sound, Adjustable Bass, Dual Chamber Drivers, Chat Mixer, Breathable Leatherette, Memory Foam, and Noise Cancelling Microphone - Blue. But first, let me say that this is a fine collection of Beatles material. Lossless Compressed – as the name implies, lossless compression means that a RAW file is compressed like an archive file without any loss of data. Titolo: 10 box set Anno: 1993 Genere: rock Etichetta:Atlantic fonte cd /originale /cdda Cover : Incluse:::->Tracklist<-::: led zeppelin III Immigrant Song - 2:25 Friends - 3:54 Celebration Day - 3:29 Since I've Been Loving You - 7:23 Out on the Tiles - 4:06 Gallows Pole - 4:56 Tangerine - 3:10 That's the Way - 5:37 Bron-Y-Aur Stomp - 4:16. Es posible que tengas que Registrarte antes de poder iniciar temas o dejar tu respuesta a temas de otros usuarios: haz clic en el vínculo de arriba para. El enlace de mediafire subido y compartido por Akeldama. (A Collection Of Roxette's Greatest Songs) - 2015 (Box set, 4 CD), FLAC (image+. 0 % Extraction speed 7. Selected music in lossless quality. Def Leppard - London to Vegas (Live)(2CD) 34 0 639. 0 / 48 kHz / 1536 kbps / 16-bit Audio: DTS-HD MA 5. The Mamas & The Papas - Complete Anthology (4CD, Box Set 2004) Lossless. Album list (66 albums total) lossless: CD: Faces: 1970-1975 Box Set Disc 1: The First Step: 2015: 10: 07: 11: lossless: CD: Small Faces: From the Beginning [Pono. VA - 100 Hits: The Best Rock and Power Ballads Album (2017) 5CD, Box Set [FLAC|Lossless|tracks +. wav Peak level 94. 1 kHz Total Size: 2. 100 Hits American Anthems - Box Set 2019 [Flac-Lossless] 100 Hits American Anthems 5 Disc Set 100 Hits American Anthems [CD 1] 20 James Brown - Living In America. Thank you very much! 0; maxlop 31 March 2020 19:36. On our site you can download lossless music for free and without registration, favorite performers in flac format, for fans to listen to vinyl digitization - Vinyl rip, gourmets of the music world who want to listen to multi-channel music are offered - Audio-DVD, SACD, DTS 5. Download Pink Floyd - The Discovery Studio Album Box Set [16CD Box Set] - 2011, ALAC, Lossless or any other file from Music category. Lossy vs lossless is a choice you make, there is no "best" image optimization Find out what you need for your website, test things out and pick what works best for you. Various Artists- Best Audiophile Voices (4CD Box Set - lossless). cue, log Bitrate: lossless Sample Rate: 16 Bit/44. Important Notice! Someone tried to vandalise the database by deleting about 76k entries. Humble Pie's Up Our Sleeve: Official Bootleg Box Set Vol 3 is the latest recorded testament to what this band did best; playing bluesy, gutsy, soulful hard rock, live on stage. My Heart Will Go On - Celine Dion 02. 17/12/2019 BY Free MP3 Site Leave a Comment. Noisettes - Never forget you 04. the accountant. UK box-set includes 11 classics singles, 'I Can't Explain' (1965), 'My Generation' (1965), 'Substitute' (1966), 'I'm A Boy' (1966), 'Happy Jack. 2018 ruskaval Grateful Dead 5 Show, 12CD Limited Edition/1000 only. I'm A Man 14. VA - Ultimate Divas: The Greatest Female Voices [4CD Box Set] (2015), FLAC, Lossless; VA - 100 Love Songs - The Countdown Singers (1950-2006) (2009) The Best of Love Songs - Collection (2011) FLAC-Tracks-CUE / Lossless; VA - The Love Album (4CD, 2020) VA - KnuffelRock 7 (1998) VA - Top 40 Knuffelrock - The Ultimate Top 40 Collection (2018) Lossless. Led Zeppelin 50th Anniversary Box Set - Best of Earls Court 1975. Lossless data compression synonyms, Lossless data compression pronunciation, Lossless data compression translation, English dictionary definition of Lossless data compression. Waylon Jennings - Burning Memories (1997) [FLAC] June 24, 2020 admin Lossless. A 16 disc limited edition box set featuring studio and live recordings – many previously unreleased – from King Crimson’s mid-1990s double trio line-up. Torrent details for "Just Acoustic 80 Acoustic Songs - 4 Disc Box Set 2018 [Flac-Lossless]" Log in to bookmark. adj designed to have no attenuation. Def Leppard - London to Vegas (Live)(2CD) 34 0 639. The Beatles - The Lost Album II [14 CD Box Set] (Lossless, 2019) - скачать торрент бесплатно. 4 -===- D:\музыка\Lossless\Forever Classics\Forever Classics - CD 05 - Mendelssohn\04 - Violin Concerto in E Minor, Op. 99 per month, alternatively you could opt for a $9. cue), lossless. Limited 18 disc (14 CDs + 4 Blu-ray audio). With the Build-to-Lossless setting enabled, the PCoIP protocol gradually builds to a fully lossless image, providing picture-perfect clarity. Once a losslessly compressed image is processed by post-processing software, the data is first decompressed, similar to what happens to archived data contained in a ZIP file. Saving All My Love For You - Whitney Houston 03. Для записи альбома. Cream - Cream USA 7 CD Box Set 1967-68 Tarantura Artwork included Cream Your Jeans Brandeis University Waltham, MA September 9, 1967 Tarantura TCD Cream-1-1,2 Disc 1: 101. Anonymous March 29, 2017 2017, Box Sets, CD, Lossless Comments Off on Golden Earring – The Complete Studio Recordings (2017) [29CD Box Set, CD, Lossless] Year: 2017 Genre: Rock Audio Source: CD Audio Codec: FLAC Rip Type: image, cue, log Bitrate: Lossless Audio Channels: 2. cue) QUALIDADE: Lossless SÍTIO: chuckberry. Led Zeppelin 50th Anniversary Box Set - Best of Earls Court 1975. 1-9 (5 CDs, 2012) [Lossless, FLAC] Artist : Erich Leinsdorf / Boston Symphony Orchestra Title : Beethoven: Symphonies Nos. 1 kHz / 16 Bit Source : 5 x CD Album Artist : REO Speedwagon Album Name : Original Album Classics Genre : Rock Release Date : 2011 ArtWork : included Size. 05-24-2020 03:20 PM by scrappydoo. Tom Petty And The Heartbreakers - The Complete Studio Albums Volume 1 (1976-1991) (2016) [Remastered, Box Set, Vinyl] Creedence Clearwater Revival - Absolute Originals (2004) [Remastered, Box Set, Vinyl] Cheap Trick - The Classic Albums 1977-1979 (2013) [Remastered, Box Set, Vinyl] View all. Anonymous March 29, 2017 2017, Box Sets, CD, Lossless Comments Off on Golden Earring – The Complete Studio Recordings (2017) [29CD Box Set, CD, Lossless] Year: 2017 Genre: Rock Audio Source: CD Audio Codec: FLAC Rip Type: image, cue, log Bitrate: Lossless Audio Channels: 2. Firstly, I see that the FLAC encoding has "Lossless 5" as the default. Скачать сборник The Tremeloes - Boxed 4CD Box Set в формате FLAC через торрент. The Singles Box Set 1975-1986 (2013) [FLAC (tracks)]. 99 per month, alternatively you could opt for a $9. 5A 10A 15A 20A 25A 30A. 1 - Operas I (8 CDs, 2004) [Lossless / MP3] Artist : Albert Herring, Owen Wingrave, Billy Budd, Peter Grimes Title Of Album : Britten conducts Britten vol. cue) Quality: Hi-Fi, lossless audio Sample Rate: 44. flac32 MB03 Belinda. 0 % Extraction speed 7. High quality digital remastering, full production limited edition, by Mitsuo Koike who is also the main engineer of YMO and also works on sketch shows etc. ZealousidealDish3) submitted 1 hour ago by ZealousidealDish3. The Jimi Hendrix Experience - The Jimi Hendrix Experience [Vinyl Box Set] (2017) [24bit-192kHz] Today, 19:21 | Download more: Category » Hi-Res, DSD, Vinyl Container: flac (tracks) Quality: Hi-Fi, lossless audio Sample Rate: 192000 kHz / 24 bit, Stereo Source: 8 x LP Album Artist/Name: / The Jimi Hendrix Experience Genre: Rock Release Date. cue), lossless. Download Kraftwerk - 3-D: The Catalogue (8 CD Box Set) / Synthpop / 2017 / Hi-Res / FLAC / Lossless torrent for free, HD Full Movie Streaming Also Available in Limetorrents. Starcrawler - Devour You 24 bit Hi-Res Year Of Release: 2019 Genre: Alternative Format: Flac, Tracks Bitrate: lossless, 24bit Sample Rate: 44100Hz Audio Channels: 2. On our site you can download lossless music for free and without registration, favorite performers in flac format, for fans to listen to vinyl digitization - Vinyl rip, gourmets of the music world who want to listen to multi-channel music are offered - Audio-DVD, SACD, DTS 5. By obtaining experimental proof of this behavior, physicists from the University of Basel have expanded the pool of. 0 % Extraction speed 7. ape Extracted successfully Conclusion: this track is CDDA with probability 54% Tempfile successfully deleted. This 15-CD box set captures The Rolling Stones in all their '60s glory with the individual albums housed in original full colour sleeves. The Symphonies 10 CD Box Set (1996) (LOSSLESS MP3) Genre: Music, Classical Music, Discography, FLAC / APE Download. APE, FLAC, WAV. The Corrs - Original Album Series (5cd Box Set) (2011) Lossless ->>> DOWNLOAD 1 / 3. 31 Gb | Recovery: 3% | Covers: in archive | Release: from Texas Hurricane Boxset by Analogue Productions ‎(CAPB 40036 SA. 89 GB Recovery: +3% Scan: yes. El enlace de mediafire subido y compartido por Akeldama. The Cranberries - 8 Studio Albums + Greatest Hits [LOSSLESS] Discography Maret 01, 2018 Album , Discography , iTunes Music , iTunes Plus AAC M4A , The Cranberries Download Individually 20th Century Masters - The Millennium Collection: The Best of the Cranberries : Released: Jan 1, 200. cue] Идеальный рип+Собственный рип 9 | 0. I restored those entries and have temporarily disabled the delete and edit functions to prevent further damage. VA - 1-2-3-4 Punk & New Wave 1976-1979 [5CD Long Box] (1999) FLAC, Lossless. 0 % Extraction speed 6. 20 14:00 CBR 320 A TREE FULL OF SECRETS (BOX SET) [FLAC] by PINK FLOYD | ALBEN | 22. 8MHz | Tracks: 13 | Size: ~2. REO Speedwagon - Original Album Classics (2011) [5CD Box Set] 2018-6-12 | Download more: Genres » Rock, Metal Container : FLAC (image +. cue), lossless Nirinjan Kaur Khalsa - Humee Hum and Peace & Tranquility - 1992, FLAC (tracks+. Albums/2006 - Hosannas From The Basements Of Hell/Killing Joke - Hosannas From the Basements of HELL. Text or call 716-548. Simple Minds - Themes [25 CD-Singles Box Set] (2008), FLAC, Lossless (self. 2 and HIFI lossless soundBluetooth 4. 2020 Lossless; 2019 Lossless; The Revillos - Stratoplay: The Box Set [2020] Iggy Pop - The Bowie Years [2020] View all. 8 X Range quality 99. Mono Box Set by The Beatles (2009, CD Flac) - Release Date: 2009 Genre: Rock Audio Codec: Flac Rip Type: tracks +. cue) QUALIDADE: Lossless SÍTIO: chuckberry. “Human Behaviou. 0 % Test CRC 8A9C27A2 Copy CRC 8A9C27A2. 5 Gb Album information I like. Filename C:\Users\Alex\Desktop\Lossless Galaxy ALLexxess\Rush\1980 Permanent Waves (5-Disc Box Set Mercury Records 2020)\CD1\Rush - Permanent Waves CD1. cue), lossless David Paton (ex- Pilot, The Alan Parsons Project) - The Traveller: Another Pilot Project - 2019, FLAC (image+. On our site you can download lossless music, favorite artists in flac format for free and without registration, as well as for vinyl lovers, we have digitization from vinyl records (Vinyl rip). VA - Ultimate Divas: The Greatest Female Voices [4CD Box Set] (2015), FLAC, Lossless; VA - 100 Love Songs - The Countdown Singers (1950-2006) (2009) The Best of Love Songs - Collection (2011) FLAC-Tracks-CUE / Lossless; VA - The Love Album (4CD, 2020) VA - KnuffelRock 7 (1998) VA - Top 40 Knuffelrock - The Ultimate Top 40 Collection (2018) Lossless. wav Peak level 94. Next you need to install the latest version of the FLAC codec (link below) following the defaults. Heaven & Earth (Live and in the Studio 1997 - 2008) is the eighth of the major box set releases from English progressive rock group King Crimson, released in 2019 by Discipline Global Mobile, Panegyric Records, Inner Knot & Wowow Entertainment, Inc. top/file/Simple Minds - Themes [25 CD-Singles Box Set] (2008), FLAC, Lossless. Harry Manfredini - Friday The 13th Parts 1 - 6 Box Set [Limited Edition] (6CD) (2012) Tracks + cue + log | Covers + Booklet | 3% rar recovery. Thank you very much! 0;. The Doors - Deluxe Box Set - 2008, WAVPack Release date : 2008 | Audio Codec : WAVPack | Rip type : image +. The Mamas & The Papas - Complete Anthology (4CD, Box Set 2004) Lossless My blog. Lossless | FLAC | MEGA. The Symphonies 10 CD Box Set (1996) (LOSSLESS MP3) Genre: Music, Classical Music, Discography, FLAC / APE Download. About Lossless Việt Nam. 24bit Hi-Res, SACD, Vinyl Rips, Discographies. According to the HTTP Archive, as of December 2018, images make up over 40% of an average website's page weight on both desktops and mobile devices. (Soul/Funk/D isco) VA - The Tabu Records Box Set (2014), FLAC (tracks+. Filename D:\Various - Love (Box Set) (2003) - FLAC\CD3 (I Wanna Stay With You)\11 - James Brown & Lynn Collins - What My Baby Needs Now Is A Little More Lovin'. Rock, Electronic (club and dancing music), Rap, Hip-hop and other music of any style. (5-CD LP-sized box set with 84-page hardcover book) Box set containing Buck's complete recordings 1953-64 including demos, singles, LPs, unreleased songs and more. HK1 X3 Android 10. VA – Absolute 70’s [3CD Box Set] (2007) March 31, 2020. 0 Sample Rate: 16 Bit/44. Free shipping. 1 kHz (Tracks) Artist: Lynyrd Skynyrd Title: 5 Original Albums [5CD Box Set] Released: 2011 Style: Southern Rock, Blues Rock, Hard Rock RAR Size: 1. 0 Smart TV BOX Amlogic S905X3 5G Wifi Media Player Set Top Box. Remaster Pop Rock Classic Rock Label: SPV Acoustic 3-05-2020, 08:21 Rainbow - The Singles Box Set 1975-1986 (2013) [FLAC (tracks)]. wav Peak level 100. [BOX SET] Erich Leinsdorf conducts Beethoven: Symphonies Nos. Container: flac (tracks) Quality: Hi-Fi, lossless audio Sample Rate: 96000 kHz / 24 bit, Stereo Source: 7 x LP Album Artist: Bright Eyes Album Name: A Collection Of Songs Written And Recorded 1995-1997 (2003 Box Set Remaster Vinyl) Genre: Alternative Release Date: 1998 Duration: 03:40:55 ArtWork: not included Size. Lossless data compression synonyms, Lossless data compression pronunciation, Lossless data compression translation, English dictionary definition of Lossless data compression. That is huge! 😮 When it comes to the new mobile-first index and performance, image optimization plays a crucial role in how fast your WordPress site will be able to load. Детали релиза Various Artists - This Is Smooth Jazz - The Box Set (2001) [FLAC (tracks +. Bach - Early Cantatas vol. cue, log Bitrate: lossless Sample Rate: 16 Bit/44. These options are only used when exporting spreads with transparency in artwork. 2017 Label: Olympian - OLY 07 • Format: File FLAC, Compilation, Stereo • Country: Germany • Genre: Electronic • Style: Techno Although Hades was a major ancient Greek god, and was the brother of the first generation of Olympians Zeus, Poseidon, Hera, Demeter, and Hestiahis realm was Two Point Four - Various - Olympian 7 (File) underworldfar from Olympus, and thus was not usually. mungkin krn agan lg ada kendala tp akhirnya crystal clear kok. 0 % Test CRC 76731F36 Copy CRC 76731F36 Copy OK No errors occurred AccurateRip summary Track 1 not present in database. - Oppo 10x lossless zoom sliding an element on the screen. 05: Sex And The Future 2020 1080p WEB-DL H264 AC3-EVO. Time Life's Classic Soft Rock spotlights original hits from the '70s by the artists who made them famous. 100 Hits American Anthems - Box Set 2019 [Flac-Lossless] 100 Hits American Anthems 5 Disc Set 100 Hits American Anthems [CD 1] 20 James Brown - Living In America. (Soul/Funk/D isco) VA - The Tabu Records Box Set (2014), FLAC (tracks+. Все Тут Online > CD (Компакт диски) Lossless - МУЗЫКА БЕЗ ПОТЕРИ КАЧЕСТВА > РОК МУЗЫКА (Lossless) > Зарубежный Rock (lossless) Jack Bruce ‎– Can You Follow (6CD Box Set) - 2008 [lossless].